#TITLE:祭 JAPAN;
#SUBTITLE:(J-Summer Remix);
#ARTIST:Revenge;
#TITLETRANSLIT:Matsuri Japan;
#SUBTITLETRANSLIT:;
#ARTISTTRANSLIT:;
#CREDIT:;
#BANNER:;
#BACKGROUND:;
#LYRICSPATH:;
#CDTITLE:;
#MUSIC:Matsuri Japan Jsummer.mp3;
#MUSICLENGTH:94.406;
#OFFSET:-0.040;
#SAMPLESTART:55.965;
#SAMPLELENGTH:12.000;
#SELECTABLE:YES;
#BPMS:0.000=179.980;
#STOPS:;
#BGCHANGES:;
#FIRSTBEAT:8.000;

#LASTBEAT:277.500;

#SONGFILENAME:Songs/ERICth The 3rd/Matsuri Japan Jsummer/Matsuri Japan Jsummer.sm;

#HASMUSIC:1;

#HASBANNER:0;


//---------------dance-single - MANIAC----------------
#NOTES:
     dance-single:
     MANIAC:
     hard:
     9:
     0.607,0.660,0.551,0.233,0.487,327.000,52.000,22.000,0.000,0.000:

0000
0000
0000
0000
,
0000
0000
0000
0000
,
0000
0000
0000
0000
,
0000
0000
0000
0000
,
1010
0010
0011
0010
,
1100
0101
1100
0101
,
1200
1000
1000
1000
,
1300
0010
0001
1000
,
0100
0000
0001
1000
0000
0001
1000
0000
0001
1000
0000
0001
,
1000
0000
0100
0010
0000
0001
0100
0000
0010
1000
0000
0010
,
0100
1001
0010
1001
,
1100
0000
0001
0010
0000
0000
0101
0000
1000
0010
0000
0000
,
1001
0100
0001
1000
,
1001
0110
0001
1000
,
1010
0000
0010
0100
0000
0000
0011
0000
0010
0100
0000
0000
,
0101
0000
0100
0010
0000
0000
1100
0000
0100
0010
0000
0000
,
2001
0010
3002
0100
,
0023
0100
0230
1000
,
2300
3001
1001
0110
,
0002
0000
0000
1003
0000
0000
0010
0000
0001
1000
0000
0000
,
0010
0000
1000
0001
0000
0000
1000
0000
0000
0100
0000
0000
,
0110
0011
0110
1100
,
1000
0000
0010
0001
0000
0000
0001
0000
0100
1000
0000
0000
,
0010
0000
0001
0100
0000
0000
0010
0000
1000
0100
0000
0000
,
0020
1000
1000
0100
,
0100
2030
0100
0010
,
0010
0000
0001
3002
0100
0000
0100
0000
,
0010
0023
0000
0000
,
2030
3000
0102
0003
,
2100
3000
0120
0030
,
1002
0003
0210
0300
,
2010
3000
0102
0003
,
1000
0000
0010
0100
0000
0010
0100
0000
0010
0100
0000
0010
,
0100
0100
0100
0100
,
0001
0000
1000
0010
0000
1000
0010
0000
1000
0010
0000
1000
,
0010
0000
0010
0100
0000
0100
0001
0000
0001
1000
0000
0000
,
1000
0000
0100
1000
0000
0100
1000
0000
0100
1000
0000
0100
,
1000
1001
0010
0001
,
0100
0110
0001
1000
,
0110
1000
0101
1100
,
0000
0000
0000
0001
0100
0001
0000
0000
0100
0000
0000
0010
,
0000
0000
1000
0000
0000
0120
0000
0000
0100
0030
0000
0000
,
0110
1000
0000
0010
0000
0100
0000
0001
,
0000
0100
0000
1000
0000
0010
0000
0100
,
0000
0001
0000
0100
0000
0010
0000
1000
,
0000
0001
0000
0010
0000
0001
0000
1000
,
0000
0100
0000
0011
0000
0010
0000
1000
,
0000
0010
0000
0110
0000
0001
0000
1000
,
0000
0010
0000
1001
0000
0100
0000
0010
,
0000
0010
0000
0100
0000
1000
0000
0001
,
1001
0000
1000
0010
0000
0000
1001
0000
0001
0010
0000
0000
,
1001
0000
0001
1000
0000
0000
1001
0000
1000
0001
0000
0000
,
0110
0000
0010
0001
0000
0000
0110
0000
0100
1000
0000
0000
,
1000
0000
0001
1000
0000
0001
0010
0000
0001
0100
0000
0001
,
1000
0000
1000
0001
0000
0010
0001
0000
0100
0010
0000
0100
,
0001
0000
1000
0010
0000
1000
0100
0000
0001
0100
0000
0010
,
1000
0000
0100
0010
0000
0010
0100
0000
0001
1000
0000
1000
,
0001
0000
0001
0100
0000
1000
0100
0000
0001
0010
0000
0010
,
0100
0000
1000
0001
0000
0010
0100
0000
0001
0010
0000
0100
,
1000
0000
1000
0001
0000
0010
0001
0000
0100
0010
0000
0100
,
0001
0000
1000
0010
0000
1000
0100
0000
0001
0100
0000
0010
,
1000
0000
0100
0010
0000
0010
0100
0000
0001
1000
0000
1000
,
0001
0000
0001
0100
0000
1000
0100
0000
0001
0010
0000
0010
,
0100
0000
1000
0001
0000
0010
0100
0000
0001
0010
0000
0100
,
1000
1001
0011
0010
,
1000
1010
0100
0102
,
0000
0000
0000
0000
,
0000
1000
0203
0000
,
0000
0000
0000
0000
,
0000
0300
0000
0000;

//---------------dance-single - ANOTHER----------------
#NOTES:
     dance-single:
     ANOTHER:
     medium:
     6:
     0.354,0.661,0.339,0.074,0.000,195.000,32.000,7.000,0.000,0.000:

0000
0000
0000
0000
,
0000
0000
0000
0000
,
0000
0000
0000
0000
,
0000
0000
0000
0000
,
0010
1000
0001
0100
,
0010
1000
0100
0010
,
0002
0000
0000
0000
,
1003
0100
0010
0000
,
0001
1000
0010
0100
,
0001
1000
0100
0010
,
0100
1000
0010
0100
,
0001
1000
1001
1001
,
0100
0010
0100
1000
,
0001
0100
0010
0001
,
1000
0100
0010
0001
,
1000
0001
1001
0110
,
0001
1000
0010
1000
,
0001
1010
0101
1001
,
0100
0010
0001
1000
,
0011
0011
1100
1100
,
0010
0100
1000
0001
,
0100
0010
0100
0010
,
1000
0001
1000
0100
,
0010
0100
0010
0100
0010
0000
0100
0000
,
0020
0000
0000
0000
,
1000
1000
1000
1000
,
2030
0000
0000
0000
,
0001
0000
0001
0010
,
0010
3000
0000
0000
0010
0000
0000
0000
,
0100
0010
0001
0000
,
0100
1000
0010
0000
,
0001
1000
0001
0000
,
0001
1000
0001
0010
,
0001
1000
0010
0100
,
0001
1000
0100
0010
,
0001
1000
0001
0100
,
0110
1001
0110
1001
,
0110
1001
0110
1001
,
0110
1001
0110
1001
,
2002
0000
0000
0000
,
0000
0000
0000
0000
,
0000
0000
0000
0000
,
0000
0000
0000
0000
,
3003
0000
0000
0000
,
0010
0000
0000
0000
,
0100
0000
0000
0000
,
0000
0000
0000
0000
,
0010
0000
0000
0000
,
1000
0100
0000
0000
,
0001
0100
0000
0000
,
0011
1100
0010
0100
,
0001
1000
0100
0010
,
0100
1000
0001
1001
,
0110
0001
1000
0010
,
1000
1010
0101
0101
,
0010
1000
0100
0010
,
0001
1000
0010
1000
,
0100
0110
1000
0001
,
0100
0001
1000
0010
,
0100
0001
1000
0100
,
0010
0001
1000
0001
,
0100
0001
1000
0001
,
1000
0000
0001
0000
,
1000
0001
1000
0000
,
0001
1000
0001
1000
,
0001
1000
0200
0020
,
0000
0000
0000
0000
,
0000
0000
0000
0000
,
0030
0000
0000
0000
,
0000
0000
0000
0300
0000
0000
0000
0000;

//---------------dance-single - BASIC----------------
#NOTES:
     dance-single:
     BASIC:
     easy:
     3:
     0.236,0.329,0.095,0.085,0.000,139.000,9.000,8.000,0.000,0.000:

0000
0000
0000
0000
,
0000
0000
0000
0000
,
0010
0000
0000
0000
,
0010
0000
0000
0000
,
0100
1000
0001
0000
,
0100
0001
1000
0000
,
0100
1000
0001
0000
,
0100
0001
1000
0000
,
0110
0000
0000
0000
,
0110
0000
0000
0000
,
1001
0000
0000
0000
,
1001
0000
0000
0000
,
0011
1100
0000
0000
,
1100
0011
0000
0000
,
0100
1000
0001
0000
,
0100
0001
1000
0000
,
0010
0100
0010
0000
,
0010
0100
0010
0000
,
1000
0001
1000
0000
,
0001
1000
0001
0000
,
0100
1000
0001
0000
,
0100
0001
1000
0000
,
0010
0010
0010
0000
,
1000
1000
1000
0000
,
0001
0100
1000
0001
,
0100
0100
1000
0010
,
0100
0001
1000
0100
,
0000
0000
0000
0000
,
1001
0000
0000
0000
,
0001
1000
0010
0100
,
0001
0001
0001
0001
,
1000
1000
1000
0000
,
0100
0000
0000
0000
,
0010
0000
0000
0000
,
1000
0000
0000
0000
,
0001
0000
0000
0000
,
0010
0100
0010
0100
,
0010
0100
0010
0100
,
0010
0100
0010
0100
,
0010
0100
0010
0100
,
0020
0000
0000
0000
,
0000
0000
0000
0000
,
0000
0000
0000
0000
,
1000
0000
0000
0000
,
1000
0000
0000
0000
,
1000
0000
0000
0000
,
1030
0001
0000
0000
,
0001
1000
0000
0000
,
0100
0010
0000
0000
,
0010
0100
0000
0000
,
0001
1000
0000
0000
,
1000
0001
0000
0000
,
0010
0100
0000
0000
,
0100
0010
0000
0000
,
1000
0001
0000
0000
,
0100
1000
0000
0000
,
0001
0010
0000
0000
,
0100
0010
0000
0000
,
2000
0000
0000
0000
,
3002
0000
0000
0000
,
0203
0000
0000
0000
,
0320
0000
0000
0000
,
2030
0000
0000
0000
,
3002
0000
0000
0000
,
0100
0100
0100
0100
,
0100
0100
0100
0100
,
0203
0000
0000
0000
,
0000
0000
0000
0000
,
0000
0000
0000
0000
,
0300
0000
0000
0000;
